ExtraTorrent.cc - The Largest Bittorent SystemLogin   |   Register
Latest Articles
Recommend us with Google

Most searched
Hot torrents
First Cams
View Torrent Info: Terminator.Genisys.2015.CAM.READNFO.XVID-EVE
View Torrent Info: Ted.2.2015.HD-TS.XVID.AC3.HQ.Hive-CM8
View Torrent Info: Minions.2015.HD-TS.READNFO.XVID.AC3-VAiN
View Torrent Info: Inside.Out.2015.HD-TS.XVID.AC3-VAiN
Hot torrents
XVID DIVX
View Torrent Info: Home.2015.BRRip.XViD-ETRG
View Torrent Info: Jackie.And.Ryan.2014.HDRip.XViD-ETRG
View Torrent Info: Stung.2015.HDRip.XViD-ETRG
View Torrent Info: The.Dark.Horse.2014.HDRip.XviD.AC3-EVO
Hot torrents
H264 X264
View Torrent Info: Home.2015.720p.BluRay.x264.AAC-ETRG
View Torrent Info: I.Now.Pronounce.You.Chuck.And.Larry.2007.1080p.BluRay.x264.AC3-ETRG
View Torrent Info: The.Benchwarmers.2006.1080p.BluRay.REMUX.MPEG-2.AC3-ETRG
View Torrent Info: Stung.2015.720p.WEB-DL.x264.AAC-ETRG
Hot torrents
Television
View Torrent Info: Dark Matter S01E04 HDTV x264-ASAP[ettv]
View Torrent Info: Defiance S03E05 HDTV x264-ASAP[ettv]
View Torrent Info: Killjoys S01E03 HDTV x264-ASAP[ettv]
View Torrent Info: Hannibal S03E05 HDTV x264-LOL[ettv]
View Torrent Info: Guddu Rangeela (2015) - pDVDRip - 1xCD - x264 - AAC - [DDR]
View Torrent Info: 1.Nenokkadine.2014.1080p.WEB-DL.x264.Telugu.AAC-ETRG
View Torrent Info: Who.Am.I.2014.720p.BluRay.x264.German.AAC-ETRG
View Torrent Info: Sevimli.Tehlikeli.2015.480p.DVDRip.x264.Turkish.AAC-ETRG
30s
Chat
To add new messages please Login or Register for FREE


ExtraTorrent.cc > Categories > Movies torrents > Bollywood torrents


Browse Movies torrents

Hasee Toh Phasee (2014) - 1CD - DVDRip - Hindi - Xvid - Mp3 - Mafiaking - [D3Si MaNiaCs] torrent



Download torrent:Download Hasee Toh Phasee (2014) - 1CD - DVDRip - Hindi - Xvid - Mp3 - Mafiaking - [D3Si MaNiaCs] torrentMagnet linkBookmark Torrent: Hasee Toh Phasee (2014) - 1CD - DVDRip - Hindi - Xvid - Mp3 - Mafiaking - [D3Si MaNiaCs]Send Torrent: Hasee Toh Phasee (2014) - 1CD - DVDRip - Hindi - Xvid - Mp3 - Mafiaking - [D3Si MaNiaCs] Hasee Toh Phasee (2014) - 1CD - DVDRip - Hindi - Xvid - Mp3 - Mafiaking - [D3Si MaNiaCs] torrent
Direct Download:
Info hash:39CA43B72240BC23C208405588EE38FDBC4D5B9A
Category:Categories > Movies torrents > Bollywood torrents
Trackers:
10   View all torrent trackers >
Seeds:5Update seeds and leechers stat
Leechers:8
Health:
Torrent language:Hindi Hindi
Total Size:696.75 MB
Number of files:
3   View torrent files >
Torrent status:Added by trusted uploader Added by trusted uploader Trusted UploaderSite FriendSuperman
Uploader:Trusted UploaderSite FriendSuperman
Torrent added:2014-03-19 11:54:54   |   Last edit: 2014-03-19 12:16:33 by Trusted UploaderSite FriendSuperman
Hasee Toh Phasee (2014) - 1CD - DVDRip - Hindi - Xvid - Mp3 - Mafiaking - [D3Si MaNiaCs]


Download Hasee Toh Phasee (2014) - 1CD - DVDRip - Hindi - Xvid - Mp3 - Mafiaking - [D3Si MaNiaCs] torrent


Torrent Description



CLICK HERE TO CHECK MY ALL OTHER UPLOADS


Hasee Toh Phasee (2014) - 1CD - DVDRip - Hindi - Xvid - Mp3 - Mafiaking - [D3Si MaNiaCs]



-=Extreme Seeded=-


396tpfg.png


Hasee-Toh-Phasee-Movie-Poster-Designs-4.jpg


15981250a2a3770f9f004bcdf00afac92833ebdb.png

Quote:


CLICK LOGO FOR


IMDB.png



IMDB Rating: 7.3/10.0


GENRE: Comedy | Romance


General
Unique ID : 190373588866984236569308576269481801683 (0x8F389E9A4CEE45468D4C391C6157F7D3)
Complete name : Hasee Toh Phasee (2014) - 1CD - DVDRip - Hindi - Xvid - Mp3 - Mafiaking - [D3Si MaNiaCs].avi
Format : Matroska
Format version : Version 4 / Version 2
File size : 692 MiB
Duration : 2h 21mn
Overall bit rate : 685 Kbps
Movie name : Hasee Toh Phasee (2014) - 1CD - DVDRip - Hindi - Xvid - Mp3 - Mafiaking - [D3Si MaNiaCs]
Encoded date : UTC 2014-03-19 10:47:31
Writing application : mkvmerge v6.3.0 ('You can't stop me!') built on Jun 28 2013 20:09:41
Writing library : libebml v1.3.0 + libmatroska v1.4.0


vlcfile.png


Video
ID : 1
Format : MPEG-4 Visual
Format profile : Advanced Simple@L5
Format settings, BVOP : Yes
Format settings, QPel : No
Format settings, GMC : No warppoints
Format settings, Matrix : Default (H.263)
Codec ID : V_MS/VFW/FOURCC / XVID
Codec ID/Hint : XviD
Duration : 2h 21mn
Bit rate : 608 Kbps
Width : 640 pixels
Height : 272 pixels
Display aspect ratio : 2.35:1
Frame rate mode : Constant
Frame rate : 23.976 fps
Color space : YUV
Chroma subsampling : 4:2:0
Bit depth : 8 bits
Scan type : Progressive
Compression mode : Lossy
Bits/(Pixel*Frame) : 0.146
Stream size : 613 MiB (89%)
Title : Mafiaking
Writing library : XviD 1.2.1 (UTC 2008-12-04)
Language : Hindi
Default : Yes
Forced : No


musicfile1.png


Audio
ID : 2
Format : MPEG Audio
Format version : Version 2
Format profile : Layer 3
Mode : Joint stereo
Mode extension : MS Stereo
Codec ID : A_MPEG/L3
Codec ID/Hint : MP3
Duration : 2h 21mn
Bit rate mode : Constant
Bit rate : 64.0 Kbps
Channel(s) : 2 channels
Sampling rate : 24.0 KHz
Compression mode : Lossy
Stream size : 64.6 MiB (9%)
Title : Mafiaking
Writing library : LAME3.99r
Encoding settings : -m j -V 4 -q 2 -lowpass 11 -b 64
Language : Hindi
Default : Yes
Forced : No





SAMPLE WITH IN TORRENT



screensx.png


2pne.jpg

1ffv.jpg

m6ah.jpg

91e1.jpg

aiob.jpg

ahyq.jpg

vy4b.jpg

ks08.jpg

nvre.jpg

bfjv.jpg

mwu9.jpg

w5cw.jpg

k747.jpg

1lvv.jpg

qbfc.jpg

27ti.jpg

5oa5.jpg

csyn.jpg

8e33.jpg

f50t.jpg

qrjx.jpg


Special Thanks Team TMG For Source.


WE ArE N0w 0n FaCEbooK.... please If You liKe 0uR WorK ..Please Like Us...


facebook-button-like-lg.jpg


Respects To ::- SaM,oziman,Taker And All The Staff's Of Extratorrent!!!

1706719726c7ab30a04b42298528b1fda3792ba1.gif

cooltext620544591.png




Download Hasee Toh Phasee (2014) - 1CD - DVDRip - Hindi - Xvid - Mp3 - Mafiaking - [D3Si MaNiaCs] torrent


Comments (please add your comment)
1
posted by Blocked (2014-03-19 12:28:25)
nnas avatargood share bro


2
posted by ET junkie (2014-03-19 12:37:43)
Knight_Rider avatarThx


3
posted by (2014-03-19 12:39:34)
RahulD172 avatarnice work bro...


4
posted by (2014-03-19 18:09:09)
sumit82 avatarNice job. keep uploading more hindi movie.


5
posted by ET loverSuperman (2014-03-20 05:39:03)
KNR avatarthanks buddy.. print is good


6
posted by (2014-03-20 10:14:13)
harpreets088 avatarthanks


7
posted by (2014-03-29 21:28:30)
akash_jee avatarGood Work Mafiaking ...
Audio \ Video: (Excellent)




Recent Searches




Home - Browse Torrents - Upload Torrent - Stat - Forum - FAQ - Torrent sitemap - Login
ExtraTorrent.cc is in compliance with copyrights
BitCoin: 1XeH1kKXWYbzZcFHokGiZ4d3MWW5WyXzU
2006-2015 ExtraTorrent.cc